Как разбить один большой mp3 на трэки

categoryВозникла у меня проблема. Дело в том, что музыку я качаю исключительно lossless (т.е. в максимальном качестве). Как правило это огромный файл flac или ape, в котором весь альбом и входящий в комплект cue файл. Но этого формата не понимает автомагнитола. Она требует mp3\wma. И что же делать? Как обойтись бесплатными программами и минимумом “телодвижений”?

Да очень просто. В комплект к aimp2 входит отдельно скачиваемый набор утилит. Скачать его можно здесь или с этой страницы (внизу).

Устанавливаем и запускаем конвертор:
category

Добавляем файлы для конвертирования
category

Например,
category

Заполняем пару параметров, типа куда положить результат и качество результата и жмём старт:
(http://host NULL.vdasus NULL.com/mnl2/cuez/4b NULL.jpg)
Вот он сконвертированный файл, который будет читаться автомагнитолами и проч.
category

Плохо то, что мы лишены возможности двигаться по трэкам (отдельным песням). Это ОЧЕНЬ неудобно :) Поэтому разобъём-ка мы его на отдельные песни. Для этого качаем бесплатную программу Medieval CUE Splitter (PC)

Устанавливаем и запускаем. Открываем CUE файл
category
Тут же спросит где к нему аудио
category

И вот вытаскивается сколько и каких песен есть
(http://host NULL.vdasus NULL.com/mnl2/cuez/8b NULL.jpg)

Нажимаем Split и получаем результат…
category
(http://host NULL.vdasus NULL.com/mnl2/cuez/10b NULL.jpg)

Все просто, быстро и бесплатными утилитами …

  • Mike

    Красаучег!!!
    +100500 те)

    • наздоровьичко :)

  • Masha

    Medieval CUE Splitter (PC) не спрашивает у меня, где лежит аудио к файлу cue. Просто берет его режет файл на ape. Что я делаю не так? Помогите, пожалуйста.

    • Файл с аудио должен лежать там же, где лежит cue. Либо можно, наверное, попробовать отредактировать сам файл cue –

      REM GENRE “Glam Rock”
      REM DATE 1992
      REM DISCID E70E5B10
      REM COMMENT “ExactAudioCopy v0.99pb4”
      PERFORMER “Sweet”
      TITLE “The Best Of Sweet”
      FILE “Sweet – The Best Of Sweet.flac” WAVE

      последнюю строку из примера заменить на
      FILE “d:\media\audio\Sweet – The Best Of Sweet.flac” WAVE

      но этого я не пробовал.

      Просто положи аудио и cue в одну директорию и все получится

  • Masha

    Не получилось так, но сделала наоборот: сначала порезала Medieval CUE Splitter (PC), а потом переконвертировала этим aimp2. Вроде что-то получилось. Спасибо.

  • Не совсем понял в чем была проблема, но если все получилось, то хорошо :)

  • Pingback: Год 2011, лучшее | vdasus blog()

  • Александр

    А, откуда берется файл *.cue? 
    Спасибо.

    • Можно найти в интернете готовый, но можно и создать:

      Например вот так: http://intoclassics.net/forum/9-730-1 http://nnm-club.ru/forum/viewtopic.php?t=58901В принципе его легко можно создать и вручную – там обычный текстовый файл

      Посмотри вот тут http://www.google.lt/webhp?sourceid=chrome-instant&ie=UTF-8&ion=1#sclient=psy-ab&hl=en&newwindow=1&safe=off&site=webhp&source=hp&q=%D0%BA%D0%B0%D0%BA%20%D1%81%D1%84%D0%BE%D1%80%D0%BC%D0%B8%D1%80%D0%BE%D0%B2%D0%B0%D1%82%D1%8C%20%D1%84%D0%B0%D0%B9%D0%BB%20cue&pbx=1&oq=&aq=&aqi=&aql=&gs_sm=&gs_upl=&fp=1fb4fd78a1948099&ion=1&ion=1&bav=on.2,or.r_gc.r_pw.r_cp.,cf.osb&fp=1fb4fd78a1948099&biw=1280&bih=899&ion=1

      вот пример cue файла:
      (после ### я добавил комментарии – их быть не должно)

      REM GENRE Synthpop ### стиль, не обязательноREM DATE 1984 ### год выпуска, не обязательноREM DISCID 770A360A ### ID диска – не обязательноREM COMMENT “ExactAudioCopy v0.99pb4” ### – комментарий, кстати название программы, которая сделала этот cue, не обязательноPERFORMER “Alphaville” ### – автор, желательноTITLE “Forever Young” ### – название альбома, не обязательноFILE “Alphaville – Forever Young.ape” WAVE ### название файла, обязательно  TRACK 01 AUDIO ### – первая дорожка    TITLE “Victory Of Love” ### – название песни, обязательно    PERFORMER “Alphaville”     INDEX 01 00:00:00 ### – место с которого начинается песня в большом файле. лучше чуть чуть захватить и пустого места (паузы)  TRACK 02 AUDIO    TITLE “Summer In Berlin”    PERFORMER “Alphaville”    INDEX 00 04:14:72    INDEX 01 04:17:00  TRACK 03 AUDIO    TITLE “Big In Japan”    PERFORMER “Alphaville”    INDEX 01 09:02:45

    • Можно найти в интернете готовый, но можно и создать:

      Например вот так: http://intoclassics.net/forum/9-730-1 http://nnm-club.ru/forum/viewtopic.php?t=58901В принципе его легко можно создать и вручную – там обычный текстовый файл

      Посмотри вот тут http://www.google.lt/webhp?sourceid=chrome-instant&ie=UTF-8&ion=1#sclient=psy-ab&hl=en&newwindow=1&safe=off&site=webhp&source=hp&q=%D0%BA%D0%B0%D0%BA%20%D1%81%D1%84%D0%BE%D1%80%D0%BC%D0%B8%D1%80%D0%BE%D0%B2%D0%B0%D1%82%D1%8C%20%D1%84%D0%B0%D0%B9%D0%BB%20cue&pbx=1&oq=&aq=&aqi=&aql=&gs_sm=&gs_upl=&fp=1fb4fd78a1948099&ion=1&ion=1&bav=on.2,or.r_gc.r_pw.r_cp.,cf.osb&fp=1fb4fd78a1948099&biw=1280&bih=899&ion=1

      вот пример cue файла:
      (после ### я добавил комментарии – их быть не должно)

      REM GENRE Synthpop ### стиль, не обязательноREM DATE 1984 ### год выпуска, не обязательноREM DISCID 770A360A ### ID диска – не обязательноREM COMMENT “ExactAudioCopy v0.99pb4” ### – комментарий, кстати название программы, которая сделала этот cue, не обязательноPERFORMER “Alphaville” ### – автор, желательноTITLE “Forever Young” ### – название альбома, не обязательноFILE “Alphaville – Forever Young.ape” WAVE ### название файла, обязательно  TRACK 01 AUDIO ### – первая дорожка    TITLE “Victory Of Love” ### – название песни, обязательно    PERFORMER “Alphaville”     INDEX 01 00:00:00 ### – место с которого начинается песня в большом файле. лучше чуть чуть захватить и пустого места (паузы)  TRACK 02 AUDIO    TITLE “Summer In Berlin”    PERFORMER “Alphaville”    INDEX 00 04:14:72    INDEX 01 04:17:00  TRACK 03 AUDIO    TITLE “Big In Japan”    PERFORMER “Alphaville”    INDEX 01 09:02:45

    • Можно найти в интернете готовый (Сначала стоит попытаться найти готовый CUE в Интернете. Для этого есть сайт http://www.regeert.nl/cuesheet/ ), но можно и создать:

      Например вот так: http://intoclassics.net/forum/9-730-1 http://nnm-club.ru/forum/viewtopic.php?t=58901В принципе его легко можно создать и вручную – там обычный текстовый файл

      Посмотри вот тут http://www.google.lt/webhp?sourceid=chrome-instant&ie=UTF-8&ion=1#sclient=psy-ab&hl=en&newwindow=1&safe=off&site=webhp&source=hp&q=%D0%BA%D0%B0%D0%BA%20%D1%81%D1%84%D0%BE%D1%80%D0%BC%D0%B8%D1%80%D0%BE%D0%B2%D0%B0%D1%82%D1%8C%20%D1%84%D0%B0%D0%B9%D0%BB%20cue&pbx=1&oq=&aq=&aqi=&aql=&gs_sm=&gs_upl=&fp=1fb4fd78a1948099&ion=1&ion=1&bav=on.2,or.r_gc.r_pw.r_cp.,cf.osb&fp=1fb4fd78a1948099&biw=1280&bih=899&ion=1

      вот пример cue файла:
      (после ### я добавил комментарии – их быть не должно)

      REM GENRE Synthpop ### стиль, не обязательноREM DATE 1984 ### год выпуска, не обязательноREM DISCID 770A360A ### ID диска – не обязательноREM COMMENT “ExactAudioCopy v0.99pb4” ### – комментарий, кстати название программы, которая сделала этот cue, не обязательноPERFORMER “Alphaville” ### – автор, желательноTITLE “Forever Young” ### – название альбома, не обязательноFILE “Alphaville – Forever Young.ape” WAVE ### название файла, обязательно  TRACK 01 AUDIO ### – первая дорожка    TITLE “Victory Of Love” ### – название песни, обязательно    PERFORMER “Alphaville”     INDEX 01 00:00:00 ### – место с которого начинается песня в большом файле. лучше чуть чуть захватить и пустого места (паузы)  TRACK 02 AUDIO    TITLE “Summer In Berlin”    PERFORMER “Alphaville”    INDEX 00 04:14:72    INDEX 01 04:17:00  TRACK 03 AUDIO    TITLE “Big In Japan”    PERFORMER “Alphaville”    INDEX 01 09:02:45

    • Можно найти в интернете готовый (Сначала стоит попытаться найти готовый CUE в Интернете. Для этого есть сайт http://www.regeert.nl/cuesheet/ ), но можно и создать:

      Например вот так: http://intoclassics.net/forum/9-730-1 http://nnm-club.ru/forum/viewtopic.php?t=58901В принципе его легко можно создать и вручную – там обычный текстовый файл

      Посмотри вот тут http://bit.ly/wYw7qo

      вот пример cue файла:
      (после ### я добавил комментарии – их быть не должно)

      Copy Source | Copy HTMLREM GENRE Synthpop ### стиль, не обязательно
      REM DATE 1984 ### год выпуска, не обязательно
      REM DISCID 770A360A ### ID диска - не обязательно
      REM COMMENT "ExactAudioCopy v0.99pb4" ### - комментарий, кстати название программы, которая сделала этот cue, не обязательно
      PERFORMER "Alphaville" ### - автор, желательно
      TITLE "Forever Young" ### - название альбома, не обязательно
      FILE "Alphaville - Forever Young.ape" WAVE ### название файла, обязательно
      TRACK 01 AUDIO ### - первая дорожка
      TITLE "Victory Of Love" ### - название песни, обязательно
      PERFORMER "Alphaville"
      INDEX 01 00:00:00 ### - место с которого начинается песня в большом файле. лучше чуть чуть захватить и пустого места (паузы)
      TRACK 02 AUDIO
      TITLE "Summer In Berlin"
      PERFORMER "Alphaville"
      INDEX 00 04:14:72
      INDEX 01 04:17:00
      TRACK 03 AUDIO
      TITLE "Big In Japan"
      PERFORMER "Alphaville"
      INDEX 01 09:02:45

    • много раз менял ответ :) теперь финальная версия :) Воюю с парсером :)

  • Андрей

    у меня после того как открыл программу cue и указал путь на песни то он не видит этот трек

    • какой трек? я же не ясновидящий…

  • Андрей

    что дальше делать

    • попробуйте вот это

      • Djo Khomith

        Не могу создать CUE с миксами длиннее 1 часа,Medieval CUE Splitter не видит. Что то не стык с форматом времени из файла CUE и Medieval CUE Splitter. Там 00:00:00 и там,но в 1 случае чч:мин:сек, то для программы мин:сек:мксек.

        CUE пишу в Блокноте вручную. Не подскажете?

        • Сейчас точно не помогу… К сожалению. Можете попробовать напомнить на следующие выходные – смогу присесть, посмотреть что как

  • Djo Khomith

    Ай ладно,спасибо что ответил. Поступил проще. Зная треклист, разрезал большой микст на 2, меньше часа каждый, а там для каждого СUE написал. Просто чуть больше времени… Всего наилучшего