комментариев 20

  1. Mike
    2011/04/27

    Красаучег!!!
    +100500 те)

    • vdasus
      2011/04/27

      наздоровьичко :)

  2. Masha
    2011/05/12

    Medieval CUE Splitter (PC) не спрашивает у меня, где лежит аудио к файлу cue. Просто берет его режет файл на ape. Что я делаю не так? Помогите, пожалуйста.

    • vdasus
      2011/05/12

      Файл с аудио должен лежать там же, где лежит cue. Либо можно, наверное, попробовать отредактировать сам файл cue –

      REM GENRE “Glam Rock”
      REM DATE 1992
      REM DISCID E70E5B10
      REM COMMENT “ExactAudioCopy v0.99pb4”
      PERFORMER “Sweet”
      TITLE “The Best Of Sweet”
      FILE “Sweet – The Best Of Sweet.flac” WAVE

      последнюю строку из примера заменить на
      FILE “d:\media\audio\Sweet – The Best Of Sweet.flac” WAVE

      но этого я не пробовал.

      Просто положи аудио и cue в одну директорию и все получится

  3. Masha
    2011/05/12

    Не получилось так, но сделала наоборот: сначала порезала Medieval CUE Splitter (PC), а потом переконвертировала этим aimp2. Вроде что-то получилось. Спасибо.

  4. vdasus
    2011/05/12

    Не совсем понял в чем была проблема, но если все получилось, то хорошо :)

  5. Александр
    2012/01/14

    А, откуда берется файл *.cue? 
    Спасибо.

    • vdasus
      2012/01/14

      Можно найти в интернете готовый, но можно и создать:

      Например вот так: http://intoclassics.net/forum/9-730-1 http://nnm-club.ru/forum/viewtopic.php?t=58901В принципе его легко можно создать и вручную – там обычный текстовый файл

      Посмотри вот тут http://www.google.lt/webhp?sourceid=chrome-instant&ie=UTF-8&ion=1#sclient=psy-ab&hl=en&newwindow=1&safe=off&site=webhp&source=hp&q=%D0%BA%D0%B0%D0%BA%20%D1%81%D1%84%D0%BE%D1%80%D0%BC%D0%B8%D1%80%D0%BE%D0%B2%D0%B0%D1%82%D1%8C%20%D1%84%D0%B0%D0%B9%D0%BB%20cue&pbx=1&oq=&aq=&aqi=&aql=&gs_sm=&gs_upl=&fp=1fb4fd78a1948099&ion=1&ion=1&bav=on.2,or.r_gc.r_pw.r_cp.,cf.osb&fp=1fb4fd78a1948099&biw=1280&bih=899&ion=1

      вот пример cue файла:
      (после ### я добавил комментарии – их быть не должно)

      REM GENRE Synthpop ### стиль, не обязательноREM DATE 1984 ### год выпуска, не обязательноREM DISCID 770A360A ### ID диска – не обязательноREM COMMENT “ExactAudioCopy v0.99pb4” ### – комментарий, кстати название программы, которая сделала этот cue, не обязательноPERFORMER “Alphaville” ### – автор, желательноTITLE “Forever Young” ### – название альбома, не обязательноFILE “Alphaville – Forever Young.ape” WAVE ### название файла, обязательно  TRACK 01 AUDIO ### – первая дорожка    TITLE “Victory Of Love” ### – название песни, обязательно    PERFORMER “Alphaville”     INDEX 01 00:00:00 ### – место с которого начинается песня в большом файле. лучше чуть чуть захватить и пустого места (паузы)  TRACK 02 AUDIO    TITLE “Summer In Berlin”    PERFORMER “Alphaville”    INDEX 00 04:14:72    INDEX 01 04:17:00  TRACK 03 AUDIO    TITLE “Big In Japan”    PERFORMER “Alphaville”    INDEX 01 09:02:45

    • vdasus
      2012/01/14

      Можно найти в интернете готовый, но можно и создать:

      Например вот так: http://intoclassics.net/forum/9-730-1 http://nnm-club.ru/forum/viewtopic.php?t=58901В принципе его легко можно создать и вручную – там обычный текстовый файл

      Посмотри вот тут http://www.google.lt/webhp?sourceid=chrome-instant&ie=UTF-8&ion=1#sclient=psy-ab&hl=en&newwindow=1&safe=off&site=webhp&source=hp&q=%D0%BA%D0%B0%D0%BA%20%D1%81%D1%84%D0%BE%D1%80%D0%BC%D0%B8%D1%80%D0%BE%D0%B2%D0%B0%D1%82%D1%8C%20%D1%84%D0%B0%D0%B9%D0%BB%20cue&pbx=1&oq=&aq=&aqi=&aql=&gs_sm=&gs_upl=&fp=1fb4fd78a1948099&ion=1&ion=1&bav=on.2,or.r_gc.r_pw.r_cp.,cf.osb&fp=1fb4fd78a1948099&biw=1280&bih=899&ion=1

      вот пример cue файла:
      (после ### я добавил комментарии – их быть не должно)

      REM GENRE Synthpop ### стиль, не обязательноREM DATE 1984 ### год выпуска, не обязательноREM DISCID 770A360A ### ID диска – не обязательноREM COMMENT “ExactAudioCopy v0.99pb4” ### – комментарий, кстати название программы, которая сделала этот cue, не обязательноPERFORMER “Alphaville” ### – автор, желательноTITLE “Forever Young” ### – название альбома, не обязательноFILE “Alphaville – Forever Young.ape” WAVE ### название файла, обязательно  TRACK 01 AUDIO ### – первая дорожка    TITLE “Victory Of Love” ### – название песни, обязательно    PERFORMER “Alphaville”     INDEX 01 00:00:00 ### – место с которого начинается песня в большом файле. лучше чуть чуть захватить и пустого места (паузы)  TRACK 02 AUDIO    TITLE “Summer In Berlin”    PERFORMER “Alphaville”    INDEX 00 04:14:72    INDEX 01 04:17:00  TRACK 03 AUDIO    TITLE “Big In Japan”    PERFORMER “Alphaville”    INDEX 01 09:02:45

    • vdasus
      2012/01/14

      Можно найти в интернете готовый (Сначала стоит попытаться найти готовый CUE в Интернете. Для этого есть сайт http://www.regeert.nl/cuesheet/  (http://www NULL.regeert NULL.nl/cuesheet/ )), но можно и создать:

      Например вот так: http://intoclassics.net/forum/9-730-1 http://nnm-club.ru/forum/viewtopic.php?t=58901В принципе его легко можно создать и вручную – там обычный текстовый файл

      Посмотри вот тут http://www.google.lt/webhp?sourceid=chrome-instant&ie=UTF-8&ion=1#sclient=psy-ab&hl=en&newwindow=1&safe=off&site=webhp&source=hp&q=%D0%BA%D0%B0%D0%BA%20%D1%81%D1%84%D0%BE%D1%80%D0%BC%D0%B8%D1%80%D0%BE%D0%B2%D0%B0%D1%82%D1%8C%20%D1%84%D0%B0%D0%B9%D0%BB%20cue&pbx=1&oq=&aq=&aqi=&aql=&gs_sm=&gs_upl=&fp=1fb4fd78a1948099&ion=1&ion=1&bav=on.2,or.r_gc.r_pw.r_cp.,cf.osb&fp=1fb4fd78a1948099&biw=1280&bih=899&ion=1

      вот пример cue файла:
      (после ### я добавил комментарии – их быть не должно)

      REM GENRE Synthpop ### стиль, не обязательноREM DATE 1984 ### год выпуска, не обязательноREM DISCID 770A360A ### ID диска – не обязательноREM COMMENT “ExactAudioCopy v0.99pb4” ### – комментарий, кстати название программы, которая сделала этот cue, не обязательноPERFORMER “Alphaville” ### – автор, желательноTITLE “Forever Young” ### – название альбома, не обязательноFILE “Alphaville – Forever Young.ape” WAVE ### название файла, обязательно  TRACK 01 AUDIO ### – первая дорожка    TITLE “Victory Of Love” ### – название песни, обязательно    PERFORMER “Alphaville”     INDEX 01 00:00:00 ### – место с которого начинается песня в большом файле. лучше чуть чуть захватить и пустого места (паузы)  TRACK 02 AUDIO    TITLE “Summer In Berlin”    PERFORMER “Alphaville”    INDEX 00 04:14:72    INDEX 01 04:17:00  TRACK 03 AUDIO    TITLE “Big In Japan”    PERFORMER “Alphaville”    INDEX 01 09:02:45

    • vdasus
      2012/01/14

      Можно найти в интернете готовый (Сначала стоит попытаться найти готовый CUE в Интернете. Для этого есть сайт http://www.regeert.nl/cuesheet/  (http://www NULL.regeert NULL.nl/cuesheet/ )), но можно и создать:

      Например вот так: http://intoclassics.net/forum/9-730-1 http://nnm-club.ru/forum/viewtopic.php?t=58901В принципе его легко можно создать и вручную – там обычный текстовый файл

      Посмотри вот тут http://bit.ly/wYw7qo

      вот пример cue файла:
      (после ### я добавил комментарии – их быть не должно)

      Copy Source (http://s-c NULL.me/24578/s) | Copy HTML (http://s-c NULL.me/24578/h)REM GENRE Synthpop ### стиль, не обязательно
      REM DATE 1984 ### год выпуска, не обязательно
      REM DISCID 770A360A ### ID диска - не обязательно
      REM COMMENT "ExactAudioCopy v0.99pb4" ### - комментарий, кстати название программы, которая сделала этот cue, не обязательно
      PERFORMER "Alphaville" ### - автор, желательно
      TITLE "Forever Young" ### - название альбома, не обязательно
      FILE "Alphaville - Forever Young.ape" WAVE ### название файла, обязательно
      TRACK 01 AUDIO ### - первая дорожка
      TITLE "Victory Of Love" ### - название песни, обязательно
      PERFORMER "Alphaville"
      INDEX 01 00:00:00 ### - место с которого начинается песня в большом файле. лучше чуть чуть захватить и пустого места (паузы)
      TRACK 02 AUDIO
      TITLE "Summer In Berlin"
      PERFORMER "Alphaville"
      INDEX 00 04:14:72
      INDEX 01 04:17:00
      TRACK 03 AUDIO
      TITLE "Big In Japan"
      PERFORMER "Alphaville"
      INDEX 01 09:02:45

    • vdasus
      2012/01/14

      много раз менял ответ :) теперь финальная версия :) Воюю с парсером :)

  6. Андрей
    2016/11/27

    у меня после того как открыл программу cue и указал путь на песни то он не видит этот трек

    • vdasus
      2016/11/27

      какой трек? я же не ясновидящий…

  7. Андрей
    2016/11/27

    что дальше делать

    • vdasus
      2016/11/27

      попробуйте вот это

      • Djo Khomith
        2017/07/01

        Не могу создать CUE с миксами длиннее 1 часа,Medieval CUE Splitter не видит. Что то не стык с форматом времени из файла CUE и Medieval CUE Splitter. Там 00:00:00 и там,но в 1 случае чч:мин:сек, то для программы мин:сек:мксек.

        CUE пишу в Блокноте вручную. Не подскажете?

      • vdasus
        2017/07/01

        Сейчас точно не помогу… К сожалению. Можете попробовать напомнить на следующие выходные – смогу присесть, посмотреть что как

  8. Djo Khomith
    2017/07/03

    Ай ладно,спасибо что ответил. Поступил проще. Зная треклист, разрезал большой микст на 2, меньше часа каждый, а там для каждого СUE написал. Просто чуть больше времени… Всего наилучшего

Наверх
мобильн. компьютерная

MC: 0.53MB/0.00124 sec